Home / Battleship 2012 AVC d3g hq [PRiME]

Battleship 2012 AVC d3g hq [PRiME]

date added 6 days ago   
post views 10 views   
torrent id ID: 400962

Torrent Description: Download Battleship 2012 AVC d3g hq [PRiME] Movie Torrent in HD Quality. Battleship 2012 AVC d3g hq [PRiME] DVD and PDVD. If you facing any problem Downloading Battleship 2012 AVC d3g hq [PRiME] Movie Torrent. Scroll Down to Get Download Link.

  • Category : Movies
  • Type : Divx/Xvid
  • Language : English
  • Total size : 5.5 GB
  • Uploaded By : showstopper-showstopper


Battleship 2012 AVC d3g hq.[PRiME]

ImDb: http://www.imdb.com/title/tt1440129



Complete name : Battleship 2012 BluRay 1080p DD5.1 x264-d3g[PRiME].mkv
Format : Matroska
Format version : Version 2
File size : 5.50 GiB
Duration : 2 h 11 min
Overall bit rate : 5 989 kb/s
Movie name : Battleship 2012 BluRay 1080p DD5.1 x264-d3g
Encoded date : UTC 2017-01-06 05:02:56
Writing application : DVDFab 9.3.2.1
Writing library : libebml v0.7.8 + libmatroska v0.8.1

Video
ID : 1
Format : AVC
Format/Info : Advanced Video Codec
Format profile : [email protected]
Format settings, CABAC : Yes
Format settings, ReFrames : 2 frames
Codec ID : V_MPEG4/ISO/AVC
Duration : 2 h 11 min
Bit rate : 5 524 kb/s
Width : 1 920 pixels
Height : 800 pixels
Display aspect ratio : 2.40:1
Frame rate mode : Constant
Frame rate : 23.976 (24000/1001) FPS
Color space : YUV
Chroma subsampling : 4:2:0
Bit depth : 8 bits
Scan type : Progressive
Bits/(Pixel*Frame) : 0.150
Stream size : 4.98 GiB (91%)
Writing library : x264 core 142
Encoding settings : cabac=1 / ref=1 / deblock=1:-1:-1 / analyse=0x3:0 / me=hex / subme=5 / psy=0 / mixed_ref=0 / me_range=16 / chroma_me=1 / trellis=0 / 8x8dct=1 / cqm=0 / deadzone=21,11 / fast_pskip=0 / chroma_qp_offset=0 / threads=12 / lookahead_threads=3 / sliced_threads=0 / nr=0 / decimate=1 / interlaced=0 / bluray_compat=0 / constrained_intra=0 / bframes=2 / b_pyramid=0 / b_adapt=1 / b_bias=0 / direct=1 / weightb=0 / open_gop=0 / weightp=0 / keyint=24 / keyint_min=13 / scenecut=40 / intra_refresh=0 / rc=2pass / mbtree=0 / bitrate=5524 / ratetol=1.0 / qcomp=0.60 / qpmin=0 / qpmax=69 / qpstep=4 / cplxblur=20.0 / qblur=0.5 / ip_ratio=1.40 / pb_ratio=1.30 / aq=1:1.00
Default : Yes
Forced : No
Color range : Limited
Color primaries : BT.709
Transfer characteristics : BT.709
Matrix coefficients : BT.709

Audio
ID : 2
Format : AC-3
Format/Info : Audio Coding 3
Mode extension : CM (complete main)
Format settings, Endianness : Big
Codec ID : A_AC3
Duration : 2 h 11 min
Bit rate mode : Constant
Bit rate : 448 kb/s
Channel(s) : 6 channels
Channel positions : Front: L C R, Side: L R, LFE
Sampling rate : 48.0 kHz
Frame rate : 31.250 FPS (1536 spf)
Compression mode : Lossy
Stream size : 421 MiB (7%)
Language : English
Default : Yes
Forced : No

Text #1
ID : 3
Format : VobSub
Codec ID : S_VOBSUB
Codec ID/Info : Picture based subtitle format used on DVDs
Language : English
Default : No
Forced : No

Text #2
ID : 4
Format : VobSub
Codec ID : S_VOBSUB
Codec ID/Info : Picture based subtitle format used on DVDs
Language : Spanish
Default : No
Forced : No

Menu
00:00:00.000 : en:(01)00:00:00:000
00:09:24.105 : en:(02)00:09:24:105
00:15:04.320 : en:(03)00:15:04:320
00:23:08.678 : en:(04)00:23:08:678
00:29:44.032 : en:(05)00:29:44:032
00:36:26.809 : en:(06)00:36:26:809
00:42:01.268 : en:(07)00:42:01:268
00:49:09.654 : en:(08)00:49:09:654
00:56:08.323 : en:(09)00:56:08:323
01:00:02.223 : en:(10)01:00:02:223
01:09:50.519 : en:(11)01:09:50:519
01:15:26.730 : en:(12)01:15:26:730
01:20:56.935 : en:(13)01:20:56:935
01:29:47.423 : en:(14)01:29:47:423
01:37:14.411 : en:(15)01:37:14:411
01:43:32.247 : en:(16)01:43:32:247
01:49:38.571 : en:(17)01:49:38:571
01:56:20.681 : en:(18)01:56:20:681
02:00:41.358 : en:(19)02:00:41:358
02:09:33.974 : en:(20)02:09:33:974
02:11:21.665 : en:(21)02:11:21:665




Click Image To View Full Size


Click To View Screenshot
Click To View Screenshot
Click To View Screenshot

Battleship 2012 AVC d3g hq [PRiME]

Download Battleship 2012 AVC d3g hq [PRiME] Full Movie Torrent HD Quality

Torrent Download Battleship 2012 AVC d3g hq [PRiME]



People also Search for:

  • • Download Battleship 2012 AVC d3g hq [PRiME] Torrent 1080p
  • • Torrent Battleship 2012 AVC d3g hq [PRiME] Download DVDRip
  • • Download Battleship 2012 AVC d3g hq [PRiME] Torrent 720p
  • • Battleship 2012 AVC d3g hq [PRiME] High Resolution Torrent Result
  • • Download Battleship 2012 AVC d3g hq [PRiME] Bluray Torrent
  • • Xvid Torrent Battleship 2012 AVC d3g hq [PRiME] Download
  • • Download Battleship 2012 AVC d3g hq [PRiME] Torrent Full HD
  • • Torrent Battleship 2012 AVC d3g hq [PRiME] HDRip Download
  • • Download Battleship 2012 AVC d3g hq [PRiME] Torrent Multi Language
  • • Battleship 2012 AVC d3g hq [PRiME] Download Multi-Subs Torrent


Tagged with:

Related Movies Torrents