Home / Evans Crime 2016 English Movies HDRip XviD ESubs AAC New Source w

Evans Crime 2016 English Movies HDRip XviD ESubs AAC New Source w

date added 6 months ago   
post views 132 views   
torrent id ID: 394636

Torrent Description: Download Evans Crime 2016 English Movies HDRip XviD ESubs AAC New Source w Movie Torrent in HD Quality. Evans Crime 2016 English Movies HDRip XviD ESubs AAC New Source w DVD and PDVD. If you facing any problem Downloading Evans Crime 2016 English Movies HDRip XviD ESubs AAC New Source w Movie Torrent. Scroll Down to Get Download Link.

  • Category : Movies
  • Type : HD
  • Language : English
  • Total size : 705.3 MB
  • Uploaded By : nehalpuja-nehalpuja

Evans Crime 2016 English Movies HDRip XviD ESubs AAC New Source with Sample ☻rDX☻

SCREEN SHOTS:



or

http://postimage.co.nr/2016/12/purchase/1.html

Format : Matroska
Format version : Version 4 / Version 2
File size : 694 MiB
Duration : 1 h 33 min
Overall bit rate : 1 038 kb/s
Movie name : Evan's Crime 2016 English Movies HDRip XviD ESubs AAC New Source ☻rDX☻

Video
ID : 1
Format : MPEG-4 Visual
Format profile : Advanced [email protected]
Format settings, BVOP : 2
Format settings, QPel : No
Format settings, GMC : No warppoints
Format settings, Matrix : Default (H.263)
Muxing mode : Packed bitstream
Codec ID : V_MS/VFW/FOURCC / XVID
Codec ID/Hint : XviD
Duration : 1 h 33 min
Bit rate : 890 kb/s
Width : 640 pixels
Height : 352 pixels
Display aspect ratio : 16:9
Frame rate mode : Constant
Frame rate : 23.976 (24000/1001) FPS
Color space : YUV
Chroma subsampling : 4:2:0
Bit depth : 8 bits
Scan type : Progressive
Compression mode : Lossy
Bits/(Pixel*Frame) : 0.165
Stream size : 595 MiB (86%)
Title : ☻rDX☻
Writing library : XviD 64
Default : Yes
Forced : No

Audio
ID : 2
Format : MPEG Audio
Format version : Version 1
Format profile : Layer 3
Mode : Joint stereo
Mode extension : MS Stereo
Codec ID : A_MPEG/L3
Codec ID/Hint : MP3
Duration : 1 h 33 min
Bit rate mode : Constant
Bit rate : 128 kb/s
Channel(s) : 2 channels
Sampling rate : 48.0 kHz
Compression mode : Lossy
Stream size : 85.5 MiB (12%)
Title : ☻rDX☻
Writing library : LAME3.99r
Encoding settings : -m j -V 4 -q 3 -lowpass 17 -b 128
Default : Yes
Forced : No



IMDB : http://www.imdb.com/title/tt3784230/

DOWNLOAD LINK

Evans Crime 2016 English Movies HDRip XviD ESubs AAC New Source w Evans Crime 2016 English Movies HDRip XviD ESubs AAC New Source w

Download Evans Crime 2016 English Movies HDRip XviD ESubs AAC New Source w Full Movie Torrent HD Quality

Torrent Download Evans Crime 2016 English Movies HDRip XviD ESubs AAC New Source w



People also Search for:

  • • Download Evans Crime 2016 English Movies HDRip XviD ESubs AAC New Source w Torrent 1080p
  • • Torrent Evans Crime 2016 English Movies HDRip XviD ESubs AAC New Source w Download DVDRip
  • • Download Evans Crime 2016 English Movies HDRip XviD ESubs AAC New Source w Torrent 720p
  • • Evans Crime 2016 English Movies HDRip XviD ESubs AAC New Source w High Resolution Torrent Result
  • • Download Evans Crime 2016 English Movies HDRip XviD ESubs AAC New Source w Bluray Torrent
  • • Xvid Torrent Evans Crime 2016 English Movies HDRip XviD ESubs AAC New Source w Download
  • • Download Evans Crime 2016 English Movies HDRip XviD ESubs AAC New Source w Torrent Full HD
  • • Torrent Evans Crime 2016 English Movies HDRip XviD ESubs AAC New Source w HDRip Download
  • • Download Evans Crime 2016 English Movies HDRip XviD ESubs AAC New Source w Torrent Multi Language
  • • Evans Crime 2016 English Movies HDRip XviD ESubs AAC New Source w Download Multi-Subs Torrent


Tagged with:

Related Movies Torrents