Home / Im Not Ashamed 2016 English Movies HDRip XviD AAC New Source with

Im Not Ashamed 2016 English Movies HDRip XviD AAC New Source with

date added 1 month ago   
post views 30 views   
torrent id ID: 401161

Torrent Description: Download Im Not Ashamed 2016 English Movies HDRip XviD AAC New Source with Movie Torrent in HD Quality. Im Not Ashamed 2016 English Movies HDRip XviD AAC New Source with DVD and PDVD. If you facing any problem Downloading Im Not Ashamed 2016 English Movies HDRip XviD AAC New Source with Movie Torrent. Scroll Down to Get Download Link.

  • Category : Movies
  • Type : HD
  • Language : English
  • Total size : 706.1 MB
  • Uploaded By : nehalpuja-nehalpuja

Im Not Ashamed 2016 English Movies HDRip XviD AAC New Source with Sample ☻rDX☻

SCREEN SHOTS:



or

http://postimage.co.nr/2017/1/gps/1.html

Format : Matroska
Format version : Version 4 / Version 2
File size : 699 MiB
Duration : 1 h 51 min
Overall bit rate : 878 kb/s
Movie name : Im Not Ashamed 2016 English Movies HDRip XviD AAC New Source ☻rDX☻

Video
ID : 1
Format : AVC
Format/Info : Advanced Video Codec
Format profile : [email protected]
Format settings, CABAC : Yes
Format settings, ReFrames : 5 frames
Codec ID : V_MPEG4/ISO/AVC
Duration : 1 h 51 min
Bit rate : 718 kb/s
Width : 720 pixels
Height : 384 pixels
Display aspect ratio : 16:9
Original display aspect ratio : 16:9
Frame rate mode : Constant
Frame rate : 23.976 FPS
Standard : Component
Color space : YUV
Chroma subsampling : 4:2:0
Bit depth : 8 bits
Scan type : Progressive
Bits/(Pixel*Frame) : 0.108
Stream size : 558 MiB (80%)
Title : ☻rDX☻
Writing library : XviD

Audio
ID : 2
Format : AC-3
Format/Info : Audio Coding 3
Mode extension : CM (complete main)
Format settings, Endianness : Big
Codec ID : A_AC3
Duration : 1 h 51 min
Bit rate mode : Constant
Bit rate : 160 kb/s
Channel(s) : 2 channels
Channel positions : Front: L R
Sampling rate : 48.0 kHz
Frame rate : 31.250 FPS (1536 spf)
Bit depth : 16 bits
Compression mode : Lossy
Stream size : 127 MiB (18%)
Title : ☻rDX☻
Writing library : Lavc57.51.100 ac3_fixed
Default : Yes
Forced : No



IMDB : http://www.imdb.com/title/tt4950110/

Im Not Ashamed 2016 English Movies HDRip XviD AAC New Source with

Download Im Not Ashamed 2016 English Movies HDRip XviD AAC New Source with Full Movie Torrent HD Quality

Torrent Download Im Not Ashamed 2016 English Movies HDRip XviD AAC New Source with



People also Search for:

  • • Download Im Not Ashamed 2016 English Movies HDRip XviD AAC New Source with Torrent 1080p
  • • Torrent Im Not Ashamed 2016 English Movies HDRip XviD AAC New Source with Download DVDRip
  • • Download Im Not Ashamed 2016 English Movies HDRip XviD AAC New Source with Torrent 720p
  • • Im Not Ashamed 2016 English Movies HDRip XviD AAC New Source with High Resolution Torrent Result
  • • Download Im Not Ashamed 2016 English Movies HDRip XviD AAC New Source with Bluray Torrent
  • • Xvid Torrent Im Not Ashamed 2016 English Movies HDRip XviD AAC New Source with Download
  • • Download Im Not Ashamed 2016 English Movies HDRip XviD AAC New Source with Torrent Full HD
  • • Torrent Im Not Ashamed 2016 English Movies HDRip XviD AAC New Source with HDRip Download
  • • Download Im Not Ashamed 2016 English Movies HDRip XviD AAC New Source with Torrent Multi Language
  • • Im Not Ashamed 2016 English Movies HDRip XviD AAC New Source with Download Multi-Subs Torrent


Tagged with:

Related Movies Torrents