Home / Mechanic Resurrection (2016) 720p Dual Audio (Hindi-Eng DD-5 1CH)

Mechanic Resurrection (2016) 720p Dual Audio (Hindi-Eng DD-5 1CH)

date added 1 month ago   
post views 108 views   
torrent id ID: 401182

Torrent Description: Download Mechanic Resurrection (2016) 720p Dual Audio (Hindi-Eng DD-5 1CH) Movie Torrent in HD Quality. Mechanic Resurrection (2016) 720p Dual Audio (Hindi-Eng DD-5 1CH) DVD and PDVD. If you facing any problem Downloading Mechanic Resurrection (2016) 720p Dual Audio (Hindi-Eng DD-5 1CH) Movie Torrent. Scroll Down to Get Download Link.

  • Category : Movies
  • Type : Dubs/Dual Audio
  • Language : Hindi
  • Total size : 1.3 GB
  • Uploaded By : Redstone-Redstone

Mechanic Resurrection (2016) 720p Dual Audio (Hindi-Eng DD-5.1CH) ESub



Format                                   : Matroska
Format version                           : Version 4 / Version 2
File size                                : 1.29 GiB
Duration                                 : 1 h 34 min

Video
ID                                       : 1
Format                                   : AVC
Format/Info                              : Advanced Video Codec
Format profile                           : [email protected]
Format settings, CABAC                   : Yes
Format settings, ReFrames                : 4 frames
Codec ID                                 : V_MPEG4/ISO/AVC
Duration                                 : 1 h 34 min
Bit rate                                 : 1 500 kb/s
Width                                    : 720 pixels
Height                                   : 302 pixels
Display aspect ratio                     : 2.40:1
Original display aspect ratio            : 2.40:1
Frame rate mode                          : Constant
Frame rate                               : 25.000 FPS
Color space                              : YUV
Chroma subsampling                       : 4:2:0
Bit depth                                : 8 bits
Scan type                                : Progressive
Bits/(Pixel*Frame)                       : 0.276
Stream size                              : 1 015 MiB (77%)
Default                                  : Yes
Forced                                   : No


Audio #1
ID                                       : 2
Format                                   : AC-3
Format/Info                              : Audio Coding 3
Mode extension                           : CM (complete main)
Format settings, Endianness              : Big
Codec ID                                 : A_AC3
Duration                                 : 1 h 34 min
Bit rate mode                            : Constant
Bit rate                                 : 224 kb/s
Channel(s)                               : 6 channels
Channel positions                        : Front: L C R, Side: L R, LFE
Sampling rate                            : 48.0 kHz
Frame rate                               : 31.250 FPS (1536 spf)
Bit depth                                : 16 bits
Compression mode                         : Lossy
Delay relative to video                  : -80 ms
Stream size                              : 152 MiB (11%)
Title                                    : Hindi DD-5.1
Language                                 : Hindi
Default                                  : Yes
Forced                                   : No

Audio #2
ID                                       : 3
Format                                   : AC-3
Format/Info                              : Audio Coding 3
Mode extension                           : CM (complete main)
Format settings, Endianness              : Big
Codec ID                                 : A_AC3
Duration                                 : 1 h 34 min
Bit rate mode                            : Constant
Bit rate                                 : 224 kb/s
Channel(s)                               : 6 channels
Channel positions                        : Front: L C R, Side: L R, LFE
Sampling rate                            : 48.0 kHz
Frame rate                               : 31.250 FPS (1536 spf)
Bit depth                                : 16 bits
Compression mode                         : Lossy
Delay relative to video                  : -80 ms
Stream size                              : 152 MiB (11%)
Title                                    : English DD-5.1Ch
Language                                 : English
Default                                  : No
Forced                                   : No

Text #1
ID                                       : 4
Format                                   : UTF-8
Codec ID                                 : S_TEXT/UTF8
Codec ID/Info                            : UTF-8 Plain Text
Duration                                 : 1 h 26 min
Bit rate                                 : 31 b/s
Count of elements                        : 630
Stream size                              : 19.8 KiB (0%)
Language                                 : English
Default                                  : No
Forced                                   : No








Source GPSOFT

Mechanic Resurrection (2016) 720p Dual Audio (Hindi-Eng DD-5 1CH)

Download Mechanic Resurrection (2016) 720p Dual Audio (Hindi-Eng DD-5 1CH) Full Movie Torrent HD Quality

Torrent Download Mechanic Resurrection (2016) 720p Dual Audio (Hindi-Eng DD-5 1CH)



People also Search for:

  • • Download Mechanic Resurrection (2016) 720p Dual Audio (Hindi-Eng DD-5 1CH) Torrent 1080p
  • • Torrent Mechanic Resurrection (2016) 720p Dual Audio (Hindi-Eng DD-5 1CH) Download DVDRip
  • • Download Mechanic Resurrection (2016) 720p Dual Audio (Hindi-Eng DD-5 1CH) Torrent 720p
  • • Mechanic Resurrection (2016) 720p Dual Audio (Hindi-Eng DD-5 1CH) High Resolution Torrent Result
  • • Download Mechanic Resurrection (2016) 720p Dual Audio (Hindi-Eng DD-5 1CH) Bluray Torrent
  • • Xvid Torrent Mechanic Resurrection (2016) 720p Dual Audio (Hindi-Eng DD-5 1CH) Download
  • • Download Mechanic Resurrection (2016) 720p Dual Audio (Hindi-Eng DD-5 1CH) Torrent Full HD
  • • Torrent Mechanic Resurrection (2016) 720p Dual Audio (Hindi-Eng DD-5 1CH) HDRip Download
  • • Download Mechanic Resurrection (2016) 720p Dual Audio (Hindi-Eng DD-5 1CH) Torrent Multi Language
  • • Mechanic Resurrection (2016) 720p Dual Audio (Hindi-Eng DD-5 1CH) Download Multi-Subs Torrent


Tagged with:

Related Movies Torrents