Home / Naam Hai Akira (2016) 1080p Blu-Ray x264 AAC 5 1 ESub -DDR

Naam Hai Akira (2016) 1080p Blu-Ray x264 AAC 5 1 ESub -DDR

date added 5 months ago   
post views 60 views   
torrent id ID: 401097

Torrent Description: Download Naam Hai Akira (2016) 1080p Blu-Ray x264 AAC 5 1 ESub -DDR Movie Torrent in HD Quality. Naam Hai Akira (2016) 1080p Blu-Ray x264 AAC 5 1 ESub -DDR DVD and PDVD. If you facing any problem Downloading Naam Hai Akira (2016) 1080p Blu-Ray x264 AAC 5 1 ESub -DDR Movie Torrent. Scroll Down to Get Download Link.

  • Category : Movies
  • Type : HD
  • Language : Chinese
  • Total size : 2.6 GB
  • Uploaded By : SaM-SaM





7200p Blu-Ray Rip x264

Hindi AAC 5.1 Audio

English Subs

SCREENSHOTS


SPECS


Source: Blu-ray BD50 @ HDT

Format : Matroska
File size : 2.58 GiB
Duration : 2 h 16 min
Overall bit rate : 2 698 kb/s

Video
Format : AVC
Format/Info : Advanced Video Codec
Format profile : [email protected]
Format settings, CABAC : Yes
Format settings, ReFrames : 5 frames
Codec ID : V_MPEG4/ISO/AVC
Duration : 2 h 16 min
Bit rate : 2 500 kb/s
Width : 1 920 pixels
Height : 800 pixels
Display aspect ratio : 2.40:1
Frame rate mode : Constant
Frame rate : 24.000 FPS
Color space : YUV
Chroma subsampling : 4:2:0
Bit depth : 8 bits
Scan type : Progressive
Bits/(Pixel*Frame) : 0.068
Stream size : 2.39 GiB (93%)
Default : Yes
Forced : No
Color range : Limited
Color primaries : BT.709
Transfer characteristics : BT.709
Matrix coefficients : BT.709

Audio #1
Format : AAC
Format/Info : Advanced Audio Codec
Format profile : LC
Codec ID : A_AAC
Duration : 2 h 16 min
Bit rate : 192 kb/s
Channel(s) : 6 channels
Channel positions : Front: L C R, Side: L R, LFE
Sampling rate : 48.0 kHz
Frame rate : 46.875 FPS (1024 spf)
Compression mode : Lossy
Delay relative to video : 9 ms
Stream size : 188 MiB (7%)
Language : Hindi
Default : Yes
Forced : No

SAMPLE Included



A DDR Exclusive Encode



DOWNLOAD LINK

Naam Hai Akira (2016) 1080p Blu-Ray x264 AAC 5 1 ESub -DDR Naam Hai Akira (2016) 1080p Blu-Ray x264 AAC 5 1 ESub -DDR

Download Naam Hai Akira (2016) 1080p Blu-Ray x264 AAC 5 1 ESub -DDR Full Movie Torrent HD Quality

Torrent Download Naam Hai Akira (2016) 1080p Blu-Ray x264 AAC 5 1 ESub -DDR



People also Search for:

  • • Download Naam Hai Akira (2016) 1080p Blu-Ray x264 AAC 5 1 ESub -DDR Torrent 1080p
  • • Torrent Naam Hai Akira (2016) 1080p Blu-Ray x264 AAC 5 1 ESub -DDR Download DVDRip
  • • Download Naam Hai Akira (2016) 1080p Blu-Ray x264 AAC 5 1 ESub -DDR Torrent 720p
  • • Naam Hai Akira (2016) 1080p Blu-Ray x264 AAC 5 1 ESub -DDR High Resolution Torrent Result
  • • Download Naam Hai Akira (2016) 1080p Blu-Ray x264 AAC 5 1 ESub -DDR Bluray Torrent
  • • Xvid Torrent Naam Hai Akira (2016) 1080p Blu-Ray x264 AAC 5 1 ESub -DDR Download
  • • Download Naam Hai Akira (2016) 1080p Blu-Ray x264 AAC 5 1 ESub -DDR Torrent Full HD
  • • Torrent Naam Hai Akira (2016) 1080p Blu-Ray x264 AAC 5 1 ESub -DDR HDRip Download
  • • Download Naam Hai Akira (2016) 1080p Blu-Ray x264 AAC 5 1 ESub -DDR Torrent Multi Language
  • • Naam Hai Akira (2016) 1080p Blu-Ray x264 AAC 5 1 ESub -DDR Download Multi-Subs Torrent


Tagged with:

Related Movies Torrents