Home / Once upon a Crime 1992 WS BDRip x264-EiDER[PRiME]

Once upon a Crime 1992 WS BDRip x264-EiDER[PRiME]

date added 2 months ago   
post views 48 views   
torrent id ID: 394986

Torrent Description: Download Once upon a Crime 1992 WS BDRip x264-EiDER[PRiME] Movie Torrent in HD Quality. Once upon a Crime 1992 WS BDRip x264-EiDER[PRiME] DVD and PDVD. If you facing any problem Downloading Once upon a Crime 1992 WS BDRip x264-EiDER[PRiME] Movie Torrent. Scroll Down to Get Download Link.

  • Category : Movies
  • Type : Divx/Xvid
  • Language : English
  • Total size : 794.9 MB
  • Uploaded By : showstopper-showstopper


Once.upon.a.Crime.1992.WS.BDRip.x264-EiDER[PRiME]

ImDb: http://www.imdb.com/title/tt0101625



Complete name : Once.upon.a.Crime.1992.WS.BDRip.x264-EiDER[PRiME].mkv
Format : Matroska
Format version : Version 4 / Version 2
File size : 795 MiB
Duration : 1 h 34 min
Overall bit rate : 1 177 kb/s
Encoded date : UTC 2016-12-09 23:07:35
Writing application : mkvmerge v9.6.0 ('Slave To Your Mind') 64bit
Writing library : libebml v1.3.4 + libmatroska v1.4.5

Video
ID : 1
Format : AVC
Format/Info : Advanced Video Codec
Format profile : [email protected]
Format settings, CABAC : Yes
Format settings, ReFrames : 5 frames
Codec ID : V_MPEG4/ISO/AVC
Duration : 1 h 34 min
Bit rate : 1 046 kb/s
Width : 720 pixels
Height : 390 pixels
Display aspect ratio : 1.85:1
Frame rate mode : Constant
Frame rate : 23.976 (24000/1001) FPS
Color space : YUV
Chroma subsampling : 4:2:0
Bit depth : 8 bits
Scan type : Progressive
Bits/(Pixel*Frame) : 0.155
Stream size : 706 MiB (89%)
Writing library : x264 core 148 r2744 b97ae06
Encoding settings : cabac=1 / ref=5 / deblock=1:0:0 / analyse=0x3:0x113 / me=umh / subme=8 / psy=1 / psy_rd=1.00:0.00 / mixed_ref=1 / me_range=16 / chroma_me=1 / trellis=1 / 8x8dct=1 / cqm=0 / deadzone=21,11 / fast_pskip=1 / chroma_qp_offset=-2 / threads=12 / lookahead_threads=2 / sliced_threads=0 / nr=0 / decimate=1 / interlaced=0 / bluray_compat=0 / constrained_intra=0 / bframes=3 / b_pyramid=2 / b_adapt=1 / b_bias=0 / direct=3 / weightb=1 / open_gop=0 / weightp=2 / keyint=240 / keyint_min=23 / scenecut=40 / intra_refresh=0 / rc_lookahead=50 / rc=crf / mbtree=1 / crf=19.0 / qcomp=0.60 / qpmin=0 / qpmax=69 / qpstep=4 / ip_ratio=1.40 / aq=1:1.00
Default : Yes
Forced : No
Color range : Limited
Matrix coefficients : BT.709

Audio
ID : 2
Format : AAC
Format/Info : Advanced Audio Codec
Format profile : LC
Codec ID : A_AAC
Duration : 1 h 34 min
Bit rate : 129 kb/s
Channel(s) : 2 channels
Channel positions : Front: L R
Sampling rate : 48.0 kHz
Frame rate : 46.875 FPS (1024 spf)
Compression mode : Lossy
Delay relative to video : 9 ms
Stream size : 87.1 MiB (11%)
Language : English
Default : Yes
Forced : No

Menu
00:00:00.000 : en:00:00:00.000
00:09:15.805 : en:00:09:15.805
00:22:43.195 : en:00:22:43.195
00:38:01.154 : en:00:38:01.154
00:51:16.490 : en:00:51:16.490
01:00:29.209 : en:01:00:29.209
01:11:57.939 : en:01:11:57.939
01:21:38.477 : en:01:21:38.477




Click Image To View Full Size


Click To View Screenshot
Click To View Screenshot
Click To View Screenshot

Once upon a Crime 1992 WS BDRip x264-EiDER[PRiME]

Download Once upon a Crime 1992 WS BDRip x264-EiDER[PRiME] Full Movie Torrent HD Quality

Torrent Download Once upon a Crime 1992 WS BDRip x264-EiDER[PRiME]



People also Search for:

  • • Download Once upon a Crime 1992 WS BDRip x264-EiDER[PRiME] Torrent 1080p
  • • Torrent Once upon a Crime 1992 WS BDRip x264-EiDER[PRiME] Download DVDRip
  • • Download Once upon a Crime 1992 WS BDRip x264-EiDER[PRiME] Torrent 720p
  • • Once upon a Crime 1992 WS BDRip x264-EiDER[PRiME] High Resolution Torrent Result
  • • Download Once upon a Crime 1992 WS BDRip x264-EiDER[PRiME] Bluray Torrent
  • • Xvid Torrent Once upon a Crime 1992 WS BDRip x264-EiDER[PRiME] Download
  • • Download Once upon a Crime 1992 WS BDRip x264-EiDER[PRiME] Torrent Full HD
  • • Torrent Once upon a Crime 1992 WS BDRip x264-EiDER[PRiME] HDRip Download
  • • Download Once upon a Crime 1992 WS BDRip x264-EiDER[PRiME] Torrent Multi Language
  • • Once upon a Crime 1992 WS BDRip x264-EiDER[PRiME] Download Multi-Subs Torrent


Tagged with:

Related Movies Torrents