Home / Sold 2016 HDRip XviD AC3-iFT[PRiME]

Sold 2016 HDRip XviD AC3-iFT[PRiME]

date added 6 days ago   
post views 14 views   
torrent id ID: 401156

Torrent Description: Download Sold 2016 HDRip XviD AC3-iFT[PRiME] Movie Torrent in HD Quality. Sold 2016 HDRip XviD AC3-iFT[PRiME] DVD and PDVD. If you facing any problem Downloading Sold 2016 HDRip XviD AC3-iFT[PRiME] Movie Torrent. Scroll Down to Get Download Link.

  • Category : Movies
  • Type : Divx/Xvid
  • Language : English
  • Total size : 1.6 GB
  • Uploaded By : showstopper-showstopper


Sold.2016.HDRip.XviD.AC3-iFT[PRiME]

ImDb: http://www.imdb.com/title/tt1411956



Complete name : Sold.2016.HDRip.XviD.AC3-iFT[PRiME].avi
Format : AVI
Format/Info : Audio Video Interleave
Format profile : OpenDML
Format settings : rec
File size : 1.54 GiB
Duration : 1 h 34 min
Overall bit rate : 2 334 kb/s
Writing application : AVI-Mux GUI 1.17.8.3, Feb 16 201019:42:50

Video
ID : 0
Format : MPEG-4 Visual
Format profile : Advanced [email protected]
Format settings, BVOP : 2
Format settings, QPel : No
Format settings, GMC : No warppoints
Format settings, Matrix : Default (H.263)
Muxing mode : Packed bitstream
Codec ID : XVID
Codec ID/Hint : XviD
Duration : 1 h 34 min
Bit rate : 1 944 kb/s
Width : 720 pixels
Height : 304 pixels
Display aspect ratio : 2.35:1
Frame rate : 23.976 (23976/1000) FPS
Color space : YUV
Chroma subsampling : 4:2:0
Bit depth : 8 bits
Scan type : Progressive
Compression mode : Lossy
Bits/(Pixel*Frame) : 0.370
Stream size : 1.28 GiB (83%)
Writing library : XviD 73

Audio
ID : 1
Format : AC-3
Format/Info : Audio Coding 3
Mode extension : CM (complete main)
Format settings, Endianness : Big
Codec ID : 2000
Duration : 1 h 34 min
Bit rate mode : Constant
Bit rate : 384 kb/s
Channel(s) : 6 channels
Channel positions : Front: L C R, Side: L R, LFE
Sampling rate : 48.0 kHz
Frame rate : 31.250 FPS (1536 spf)
Compression mode : Lossy
Stream size : 260 MiB (16%)
Alignment : Aligned on interleaves
Interleave, duration : 64 ms (1.53 video frames)
Interleave, preload duration : 192 ms
Title : Sold.track_2




Click Image To View Full Size


Click To View Screenshot
Click To View Screenshot
Click To View Screenshot

Sold 2016 HDRip XviD AC3-iFT[PRiME]

Download Sold 2016 HDRip XviD AC3-iFT[PRiME] Full Movie Torrent HD Quality

Torrent Download Sold 2016 HDRip XviD AC3-iFT[PRiME]



People also Search for:

  • • Download Sold 2016 HDRip XviD AC3-iFT[PRiME] Torrent 1080p
  • • Torrent Sold 2016 HDRip XviD AC3-iFT[PRiME] Download DVDRip
  • • Download Sold 2016 HDRip XviD AC3-iFT[PRiME] Torrent 720p
  • • Sold 2016 HDRip XviD AC3-iFT[PRiME] High Resolution Torrent Result
  • • Download Sold 2016 HDRip XviD AC3-iFT[PRiME] Bluray Torrent
  • • Xvid Torrent Sold 2016 HDRip XviD AC3-iFT[PRiME] Download
  • • Download Sold 2016 HDRip XviD AC3-iFT[PRiME] Torrent Full HD
  • • Torrent Sold 2016 HDRip XviD AC3-iFT[PRiME] HDRip Download
  • • Download Sold 2016 HDRip XviD AC3-iFT[PRiME] Torrent Multi Language
  • • Sold 2016 HDRip XviD AC3-iFT[PRiME] Download Multi-Subs Torrent


Tagged with:

Related Movies Torrents