Home / Undercover Hooligan 2016 HDRip XviD AC3-EVO[PRiME]

Undercover Hooligan 2016 HDRip XviD AC3-EVO[PRiME]

date added 3 months ago   
post views 58 views   
torrent id ID: 401105

Torrent Description: Download Undercover Hooligan 2016 HDRip XviD AC3-EVO[PRiME] Movie Torrent in HD Quality. Undercover Hooligan 2016 HDRip XviD AC3-EVO[PRiME] DVD and PDVD. If you facing any problem Downloading Undercover Hooligan 2016 HDRip XviD AC3-EVO[PRiME] Movie Torrent. Scroll Down to Get Download Link.

  • Category : Movies
  • Type : Divx/Xvid
  • Language : English
  • Total size : 1.4 GB
  • Uploaded By : showstopper-showstopper


Undercover.Hooligan.2016.HDRip.XviD.AC3-EVO[PRiME]

ImDb: http://www.imdb.com/title/tt3741150



Complete name : Undercover.Hooligan.2016.HDRip.XviD.AC3-EVO[PRiME].avi
Format : AVI
Format/Info : Audio Video Interleave
File size : 1.35 GiB
Duration : 1 h 30 min
Overall bit rate : 2 145 kb/s
Writing library : VirtualDub build 32593/release

Video
ID : 0
Format : MPEG-4 Visual
Format profile : Advanced [email protected]
Format settings, BVOP : 2
Format settings, QPel : No
Format settings, GMC : No warppoints
Format settings, Matrix : Default (H.263)
Muxing mode : Packed bitstream
Codec ID : XVID
Codec ID/Hint : XviD
Duration : 1 h 30 min
Bit rate : 1 751 kb/s
Width : 720 pixels
Height : 304 pixels
Display aspect ratio : 2.35:1
Frame rate : 25.000 FPS
Color space : YUV
Chroma subsampling : 4:2:0
Bit depth : 8 bits
Scan type : Progressive
Compression mode : Lossy
Bits/(Pixel*Frame) : 0.320
Stream size : 1.10 GiB (82%)
Writing library : XviD 66

Audio
ID : 1
Format : AC-3
Format/Info : Audio Coding 3
Mode extension : CM (complete main)
Format settings, Endianness : Big
Codec ID : 2000
Duration : 1 h 30 min
Bit rate mode : Constant
Bit rate : 384 kb/s
Channel(s) : 6 channels
Channel positions : Front: L C R, Side: L R, LFE
Sampling rate : 48.0 kHz
Frame rate : 31.250 FPS (1536 spf)
Compression mode : Lossy
Stream size : 247 MiB (18%)
Alignment : Aligned on interleaves
Interleave, duration : 40 ms (1.00 video frame)
Interleave, preload duration : 512 ms




Click Image To View Full Size


Click To View Screenshot
Click To View Screenshot
Click To View Screenshot

DOWNLOAD LINK

Undercover Hooligan 2016 HDRip XviD AC3-EVO[PRiME] Undercover Hooligan 2016 HDRip XviD AC3-EVO[PRiME]

Download Undercover Hooligan 2016 HDRip XviD AC3-EVO[PRiME] Full Movie Torrent HD Quality

Torrent Download Undercover Hooligan 2016 HDRip XviD AC3-EVO[PRiME]



People also Search for:

  • • Download Undercover Hooligan 2016 HDRip XviD AC3-EVO[PRiME] Torrent 1080p
  • • Torrent Undercover Hooligan 2016 HDRip XviD AC3-EVO[PRiME] Download DVDRip
  • • Download Undercover Hooligan 2016 HDRip XviD AC3-EVO[PRiME] Torrent 720p
  • • Undercover Hooligan 2016 HDRip XviD AC3-EVO[PRiME] High Resolution Torrent Result
  • • Download Undercover Hooligan 2016 HDRip XviD AC3-EVO[PRiME] Bluray Torrent
  • • Xvid Torrent Undercover Hooligan 2016 HDRip XviD AC3-EVO[PRiME] Download
  • • Download Undercover Hooligan 2016 HDRip XviD AC3-EVO[PRiME] Torrent Full HD
  • • Torrent Undercover Hooligan 2016 HDRip XviD AC3-EVO[PRiME] HDRip Download
  • • Download Undercover Hooligan 2016 HDRip XviD AC3-EVO[PRiME] Torrent Multi Language
  • • Undercover Hooligan 2016 HDRip XviD AC3-EVO[PRiME] Download Multi-Subs Torrent


Tagged with:

Related Movies Torrents