Home / Wajah Tum Ho - 2016 - HDRip - 1CD - x264 - AAC - Makintos13 mkv

Wajah Tum Ho - 2016 - HDRip - 1CD - x264 - AAC - Makintos13 mkv

date added 1 month ago   
post views 30 views   
torrent id ID: 401094

Torrent Description: Download Wajah Tum Ho - 2016 - HDRip - 1CD - x264 - AAC - Makintos13 mkv Movie Torrent in HD Quality. Wajah Tum Ho - 2016 - HDRip - 1CD - x264 - AAC - Makintos13 mkv DVD and PDVD. If you facing any problem Downloading Wajah Tum Ho - 2016 - HDRip - 1CD - x264 - AAC - Makintos13 mkv Movie Torrent. Scroll Down to Get Download Link.

  • Category : Movies
  • Type : DVD
  • Language : Hindi
  • Total size : 697.6 MB
  • Uploaded By : mazemaze16-mazemaze16

Wajah Tum Ho - 2016 - HDRip - 1CD - x264 - AAC - Makintos13



Format : Matroska
Format version : Version 4 / Version 2
File size : 698 MiB
Duration : 2 h 10 min
Overall bit rate : 746 kb/s


Video
ID : 2
Format : AVC
Format/Info : Advanced Video Codec
Format profile : [email protected]
Format settings, CABAC : Yes
Format settings, ReFrames : 4 frames
Codec ID : V_MPEG4/ISO/AVC
Duration : 2 h 10 min
Bit rate : 680 kb/s
Width : 720 pixels
Height : 304 pixels
Display aspect ratio : 2.35:1
Frame rate mode : Constant
Frame rate : 25.000 FPS
Color space : YUV
Chroma subsampling : 4:2:0
Bit depth : 8 bits
Scan type : Progressive
Bits/(Pixel*Frame) : 0.124
Stream size : 636 MiB (91%)
Writing library : x264 core 148 r2638 7599210
Default : Yes
Forced : No

Audio
ID : 1
Format : AAC
Format/Info : Advanced Audio Codec
Format profile : LC
Codec ID : A_AAC
Duration : 2 h 10 min
Bit rate : 64.1 kb/s
Channel(s) : 2 channels
Channel positions : Front: L R
Sampling rate : 48.0 kHz
Frame rate : 46.875 FPS (1024 spf)
Compression mode : Lossy
Delay relative to video : 80 ms
Stream size : 60.0 MiB (9%)
Title : Stereo
Language : Hindi
Default : Yes
Forced : No

Source : WebHD @ DDR [Thanks]



Screens:


Wajah Tum Ho - 2016 - HDRip - 1CD - x264 - AAC - Makintos13 mkv

Download Wajah Tum Ho - 2016 - HDRip - 1CD - x264 - AAC - Makintos13 mkv Full Movie Torrent HD Quality

Torrent Download Wajah Tum Ho - 2016 - HDRip - 1CD - x264 - AAC - Makintos13 mkv



People also Search for:

  • • Download Wajah Tum Ho - 2016 - HDRip - 1CD - x264 - AAC - Makintos13 mkv Torrent 1080p
  • • Torrent Wajah Tum Ho - 2016 - HDRip - 1CD - x264 - AAC - Makintos13 mkv Download DVDRip
  • • Download Wajah Tum Ho - 2016 - HDRip - 1CD - x264 - AAC - Makintos13 mkv Torrent 720p
  • • Wajah Tum Ho - 2016 - HDRip - 1CD - x264 - AAC - Makintos13 mkv High Resolution Torrent Result
  • • Download Wajah Tum Ho - 2016 - HDRip - 1CD - x264 - AAC - Makintos13 mkv Bluray Torrent
  • • Xvid Torrent Wajah Tum Ho - 2016 - HDRip - 1CD - x264 - AAC - Makintos13 mkv Download
  • • Download Wajah Tum Ho - 2016 - HDRip - 1CD - x264 - AAC - Makintos13 mkv Torrent Full HD
  • • Torrent Wajah Tum Ho - 2016 - HDRip - 1CD - x264 - AAC - Makintos13 mkv HDRip Download
  • • Download Wajah Tum Ho - 2016 - HDRip - 1CD - x264 - AAC - Makintos13 mkv Torrent Multi Language
  • • Wajah Tum Ho - 2016 - HDRip - 1CD - x264 - AAC - Makintos13 mkv Download Multi-Subs Torrent


Tagged with:

Related Movies Torrents